Farin Urlaub Racing Team - Faszination Weltraum (2014) [FLAC]



Artist: Farin Urlaub Racing Team
Album: Faszination Weltraum
Year: 2014
Genre: Rock
Codec: Free Lossless Audio Codec
Playtime: 00:51:34
Size: 370.67 MB

TRACKLIST:
01. Mein Lied (02:37)
02. Dynamit (03:24)
03. Was Die Welt Jetzt Braucht (02:45)
04. Herz? Verloren (03:22)
05. AWG (02:42)
06. Heute Tanzen (02:28)
07. iDisco (04:03)
08. Find Dich Gut (03:09)
09. Keine Angst (03:56)
10. Fan (03:39)
11. Newton Hatte Recht (03:16)
12. Das Traurigste (05:00)
13. 3000 (02:44)
14. Sommer (04:22)
15. Immer Dabei (04:07)



CUE:

Code:
REM GENRE Rock
REM DATE 2014
REM DISCID CA0C150F
REM COMMENT "ExactAudioCopy v1.0b3"
PERFORMER "Farin Urlaub Racing Team"
TITLE "Faszination Weltraum"
FILE "01 Mein Lied.wav" WAVE
  TRACK 01 AUDIO
    TITLE "Mein Lied"
    PERFORMER "Farin Urlaub Racing Team"
    ISRC DEUM71402972
    INDEX 01 00:00:00
FILE "02 Dynamit.wav" WAVE
  TRACK 02 AUDIO
    TITLE "Dynamit"
    PERFORMER "Farin Urlaub Racing Team"
    ISRC DEUM71402973
    INDEX 01 00:00:00
FILE "03 Was Die Welt Jetzt Braucht.wav" WAVE
  TRACK 03 AUDIO
    TITLE "Was Die Welt Jetzt Braucht"
    PERFORMER "Farin Urlaub Racing Team"
    ISRC DEUM71402974
    INDEX 01 00:00:00
FILE "04 Herz Verloren.wav" WAVE
  TRACK 04 AUDIO
    TITLE "Herz? Verloren"
    PERFORMER "Farin Urlaub Racing Team"
    ISRC DEUM71402815
    INDEX 01 00:00:00
FILE "05 AWG.wav" WAVE
  TRACK 05 AUDIO
    TITLE "AWG"
    PERFORMER "Farin Urlaub Racing Team"
    ISRC DEUM71402815
    INDEX 01 00:00:00
FILE "06 Heute Tanzen.wav" WAVE
  TRACK 06 AUDIO
    TITLE "Heute Tanzen"
    PERFORMER "Farin Urlaub Racing Team"
    ISRC DEUM71402976
    INDEX 01 00:00:00
FILE "07 iDisco.wav" WAVE
  TRACK 07 AUDIO
    TITLE "iDisco"
    PERFORMER "Farin Urlaub Racing Team"
    ISRC DEUM71402977
    INDEX 01 00:00:00
FILE "08 Find Dich Gut.wav" WAVE
  TRACK 08 AUDIO
    TITLE "Find Dich Gut"
    PERFORMER "Farin Urlaub Racing Team"
    ISRC DEUM71402978
    INDEX 01 00:00:00
FILE "09 Keine Angst.wav" WAVE
  TRACK 09 AUDIO
    TITLE "Keine Angst"
    PERFORMER "Farin Urlaub Racing Team"
    ISRC DEUM71402979
    INDEX 01 00:00:00
FILE "10 Fan.wav" WAVE
  TRACK 10 AUDIO
    TITLE "Fan"
    PERFORMER "Farin Urlaub Racing Team"
    ISRC DEUM71402980
    INDEX 01 00:00:00
FILE "11 Newton Hatte Recht.wav" WAVE
  TRACK 11 AUDIO
    TITLE "Newton Hatte Recht"
    PERFORMER "Farin Urlaub Racing Team"
    ISRC DEUM71402980
    INDEX 01 00:00:00
FILE "12 Das Traurigste.wav" WAVE
  TRACK 12 AUDIO
    TITLE "Das Traurigste"
    PERFORMER "Farin Urlaub Racing Team"
    ISRC DEUM71402981
    INDEX 01 00:00:00
FILE "13 3000.wav" WAVE
  TRACK 13 AUDIO
    TITLE "3000"
    PERFORMER "Farin Urlaub Racing Team"
    ISRC DEUM71402983
    INDEX 01 00:00:00
FILE "14 Sommer.wav" WAVE
  TRACK 14 AUDIO
    TITLE "Sommer"
    PERFORMER "Farin Urlaub Racing Team"
    ISRC DEUM71402984
    INDEX 01 00:00:00
FILE "15 Immer Dabei.wav" WAVE
  TRACK 15 AUDIO
    TITLE "Immer Dabei"
    PERFORMER "Farin Urlaub Racing Team"
    ISRC DEUM71402985
    INDEX 01 00:00:00



LOG:

Code:
Exact Audio Copy V1.0 beta 3 from 29. August 2011

EAC extraction logfile from 17. October 2014, 17:18

Farin Urlaub Racing Team / Faszination Weltraum

Used drive  : TSSTcorpCDDVDW SE-208DB   Adapter: 0  ID: 0

Read mode               : Secure
Utilize accurate stream : Yes
Defeat audio cache      : Yes
Make use of C2 pointers : No

Read offset correction                      : 6
Overread into Lead-In and Lead-Out          : No
Fill up missing offset samples with silence : Yes
Delete leading and trailing silent blocks   : No
Null samples used in CRC calculations       : Yes
Used interface                              : Native Win32 interface for Win NT & 2000
Gap handling                                : Appended to previous track

Used output format              : User Defined Encoder
Selected bitrate                : 1024 kBit/s
Quality                         : High
Add ID3 tag                     : No
Command line compressor         : D:\Programme\Exact Audio Copy\Flac\flac.exe
Additional command line options : -8 -V -T "ARTIST=%artist%" -T "TITLE=%title%" -T "ALBUM=%albumtitle%" -T "DATE=%year%" -T "TRACKNUMBER=%tracknr%" -T "GENRE=%genre%" -T "PERFORMER=%albuminterpret%" -T "COMPOSER=%composer%" %haslyrics%--tag-from-file=LYRICS="%lyricsfile%"%haslyrics% -T "ALBUMARTIST=%albumartist%" -T "DISCNUMBER=%cdnumber%" -T "TOTALDISCS=%totalcds%" -T "TOTALTRACKS=%numtracks%" -T "COMMENT=%comment%" %source% -o %dest%


TOC of the extracted CD

     Track |   Start  |  Length  | Start sector | End sector 
    ---------------------------------------------------------
        1  |  0:00.00 |  2:36.47 |         0    |    11746   
        2  |  2:36.47 |  3:23.40 |     11747    |    27011   
        3  |  6:00.12 |  2:44.66 |     27012    |    39377   
        4  |  8:45.03 |  3:22.20 |     39378    |    54547   
        5  | 12:07.23 |  2:41.39 |     54548    |    66661   
        6  | 14:48.62 |  2:27.51 |     66662    |    77737   
        7  | 17:16.38 |  4:02.72 |     77738    |    95959   
        8  | 21:19.35 |  3:09.23 |     95960    |   110157   
        9  | 24:28.58 |  3:55.47 |    110158    |   127829   
       10  | 28:24.30 |  3:39.14 |    127830    |   144268   
       11  | 32:03.44 |  3:16.17 |    144269    |   158985   
       12  | 35:19.61 |  5:00.37 |    158986    |   181522   
       13  | 40:20.23 |  2:44.30 |    181523    |   193852   
       14  | 43:04.53 |  4:21.60 |    193853    |   213487   
       15  | 47:26.38 |  4:07.22 |    213488    |   232034   


Track  1

     Filename E:\EAC\Farin Urlaub Racing Team - Faszination Weltraum (2014) - FLAC\01 Mein Lied.wav

     Pre-gap length  0:00:02.00

     Peak level 99.9 %
     Extraction speed 2.3 X
     Track quality 100.0 %
     Test CRC BE5A9093
     Copy CRC BE5A9093
     Track not present in AccurateRip database
     Copy OK

Track  2

     Filename E:\EAC\Farin Urlaub Racing Team - Faszination Weltraum (2014) - FLAC\02 Dynamit.wav

     Peak level 99.9 %
     Extraction speed 2.1 X
     Track quality 99.9 %
     Test CRC DDA2F23C
     Copy CRC DDA2F23C
     Track not present in AccurateRip database
     Copy OK

Track  3

     Filename E:\EAC\Farin Urlaub Racing Team - Faszination Weltraum (2014) - FLAC\03 Was Die Welt Jetzt Braucht.wav

     Peak level 99.9 %
     Extraction speed 2.7 X
     Track quality 100.0 %
     Test CRC 3EDB7398
     Copy CRC 3EDB7398
     Track not present in AccurateRip database
     Copy OK

Track  4

     Filename E:\EAC\Farin Urlaub Racing Team - Faszination Weltraum (2014) - FLAC\04 Herz Verloren.wav

     Peak level 99.9 %
     Extraction speed 3.0 X
     Track quality 100.0 %
     Test CRC D257E4B0
     Copy CRC D257E4B0
     Track not present in AccurateRip database
     Copy OK

Track  5

     Filename E:\EAC\Farin Urlaub Racing Team - Faszination Weltraum (2014) - FLAC\05 AWG.wav

     Peak level 99.9 %
     Extraction speed 3.0 X
     Track quality 100.0 %
     Test CRC C8A68D1A
     Copy CRC C8A68D1A
     Track not present in AccurateRip database
     Copy OK

Track  6

     Filename E:\EAC\Farin Urlaub Racing Team - Faszination Weltraum (2014) - FLAC\06 Heute Tanzen.wav

     Peak level 99.9 %
     Extraction speed 3.1 X
     Track quality 100.0 %
     Test CRC 0C2365E4
     Copy CRC 0C2365E4
     Track not present in AccurateRip database
     Copy OK

Track  7

     Filename E:\EAC\Farin Urlaub Racing Team - Faszination Weltraum (2014) - FLAC\07 iDisco.wav

     Peak level 99.9 %
     Extraction speed 3.5 X
     Track quality 100.0 %
     Test CRC 4D07D979
     Copy CRC 4D07D979
     Track not present in AccurateRip database
     Copy OK

Track  8

     Filename E:\EAC\Farin Urlaub Racing Team - Faszination Weltraum (2014) - FLAC\08 Find Dich Gut.wav

     Peak level 99.9 %
     Extraction speed 3.6 X
     Track quality 100.0 %
     Test CRC 6EEC2A9A
     Copy CRC 6EEC2A9A
     Track not present in AccurateRip database
     Copy OK

Track  9

     Filename E:\EAC\Farin Urlaub Racing Team - Faszination Weltraum (2014) - FLAC\09 Keine Angst.wav

     Peak level 99.9 %
     Extraction speed 3.8 X
     Track quality 100.0 %
     Test CRC B723BD09
     Copy CRC B723BD09
     Track not present in AccurateRip database
     Copy OK

Track 10

     Filename E:\EAC\Farin Urlaub Racing Team - Faszination Weltraum (2014) - FLAC\10 Fan.wav

     Peak level 99.9 %
     Extraction speed 4.0 X
     Track quality 100.0 %
     Test CRC 948A165D
     Copy CRC 948A165D
     Track not present in AccurateRip database
     Copy OK

Track 11

     Filename E:\EAC\Farin Urlaub Racing Team - Faszination Weltraum (2014) - FLAC\11 Newton Hatte Recht.wav

     Peak level 99.9 %
     Extraction speed 3.2 X
     Track quality 99.9 %
     Test CRC BC4090E1
     Copy CRC BC4090E1
     Track not present in AccurateRip database
     Copy OK

Track 12

     Filename E:\EAC\Farin Urlaub Racing Team - Faszination Weltraum (2014) - FLAC\12 Das Traurigste.wav

     Peak level 99.9 %
     Extraction speed 4.5 X
     Track quality 100.0 %
     Test CRC 278B7182
     Copy CRC 278B7182
     Track not present in AccurateRip database
     Copy OK

Track 13

     Filename E:\EAC\Farin Urlaub Racing Team - Faszination Weltraum (2014) - FLAC\13 3000.wav

     Peak level 99.9 %
     Extraction speed 4.2 X
     Track quality 100.0 %
     Test CRC C5007E9B
     Copy CRC C5007E9B
     Track not present in AccurateRip database
     Copy OK

Track 14

     Filename E:\EAC\Farin Urlaub Racing Team - Faszination Weltraum (2014) - FLAC\14 Sommer.wav

     Peak level 99.9 %
     Extraction speed 4.6 X
     Track quality 100.0 %
     Test CRC EB081C49
     Copy CRC EB081C49
     Track not present in AccurateRip database
     Copy OK

Track 15

     Filename E:\EAC\Farin Urlaub Racing Team - Faszination Weltraum (2014) - FLAC\15 Immer Dabei.wav

     Peak level 99.9 %
     Extraction speed 4.7 X
     Track quality 100.0 %
     Test CRC 4C960568
     Copy CRC 4C960568
     Track not present in AccurateRip database
     Copy OK


None of the tracks are present in the AccurateRip database

No errors occurred

End of status report

---- CUETools DB Plugin V2.1.3

[CTDB TOCID: 1XT3O9KuOgu_O0s0HPVNZoT2kyc-] found, Submit result: 1XT3O9KuOgu_O0s0HPVNZoT2kyc- has been confirmed
[ae09d80d] (7/9) Accurately ripped
[5b5ac94e] (1/9) No match
[3f47caa8] (1/9) No match


==== Log checksum A06D59A5A585B69F31004354F0F82E578F7C9DE4E0F4AD64B5AA37C0DCB85140 ====



uploaded:




oboom: