eRRdeKa - Paradies (2014) [FLAC]



Artist: eRRdeKa
Album: Paradies
Year: 2014
Genre: Deutschrap
Codec: Free Lossless Audio Codec
Playtime: 00:44:32
Size: 314.89 MB

TRACKLIST:
01. Stroboskop (03:29)
02. Atme ein atme aus (03:57)
03. Das Meer und ich (04:09)
04. Der perfekte Beat (03:47)
05. Diggi (03:02)
06. Schwarz weiß (03:37)
07. Lass mich los (04:15)
08. DxFxT (03:07)
09. Frau für eine Nacht (04:19)
10. Satan (04:29)
11. Sternenpflücker (03:36)
12. Outro (02:45)


CUE:

Code:
REM GENRE Deutschrap
REM DATE 2014
REM DISCID 990A700C
REM COMMENT "ExactAudioCopy v1.0b3"
PERFORMER "eRRdeKa"
TITLE "Paradies"
FILE "Paradies\01. eRRdeKa - Stroboskop.wav" WAVE
  TRACK 01 AUDIO
    TITLE "Stroboskop"
    PERFORMER "eRRdeKa"
    ISRC DEQ121426138
    INDEX 01 00:00:00
FILE "Paradies\02. eRRdeKa - Atme ein atme aus.wav" WAVE
  TRACK 02 AUDIO
    TITLE "Atme ein atme aus"
    PERFORMER "eRRdeKa"
    ISRC DEQ121426139
    INDEX 01 00:00:00
FILE "Paradies\03. eRRdeKa - Das Meer und ich.wav" WAVE
  TRACK 03 AUDIO
    TITLE "Das Meer und ich"
    PERFORMER "eRRdeKa"
    ISRC DEQ121426140
    INDEX 01 00:00:00
FILE "Paradies\04. eRRdeKa - Der perfekte Beat.wav" WAVE
  TRACK 04 AUDIO
    TITLE "Der perfekte Beat"
    PERFORMER "eRRdeKa"
    ISRC DEQ121426141
    INDEX 01 00:00:00
FILE "Paradies\05. eRRdeKa - Diggi.wav" WAVE
  TRACK 05 AUDIO
    TITLE "Diggi"
    PERFORMER "eRRdeKa"
    ISRC DEQ121426142
    INDEX 01 00:00:00
FILE "Paradies\06. eRRdeKa - Schwarz weiß.wav" WAVE
  TRACK 06 AUDIO
    TITLE "Schwarz weiß"
    PERFORMER "eRRdeKa"
    ISRC DEQ121426143
    INDEX 01 00:00:00
FILE "Paradies\07. eRRdeKa - Lass mich los.wav" WAVE
  TRACK 07 AUDIO
    TITLE "Lass mich los"
    PERFORMER "eRRdeKa"
    ISRC DEQ121426144
    INDEX 01 00:00:00
FILE "Paradies\08. eRRdeKa - DxFxT.wav" WAVE
  TRACK 08 AUDIO
    TITLE "DxFxT"
    PERFORMER "eRRdeKa"
    ISRC DEQ121426145
    INDEX 01 00:00:00
FILE "Paradies\09. eRRdeKa - Frau für eine Nacht.wav" WAVE
  TRACK 09 AUDIO
    TITLE "Frau für eine Nacht"
    PERFORMER "eRRdeKa"
    ISRC DEQ121426146
    INDEX 01 00:00:00
FILE "Paradies\10. eRRdeKa - Satan.wav" WAVE
  TRACK 10 AUDIO
    TITLE "Satan"
    PERFORMER "eRRdeKa"
    ISRC DEQ121426147
    INDEX 01 00:00:00
FILE "Paradies\11. eRRdeKa - Sternenpflücker.wav" WAVE
  TRACK 11 AUDIO
    TITLE "Sternenpflücker"
    PERFORMER "eRRdeKa"
    ISRC DEQ121426148
    INDEX 01 00:00:00
FILE "Paradies\12. eRRdeKa - Outro.wav" WAVE
  TRACK 12 AUDIO
    TITLE "Outro"
    PERFORMER "eRRdeKa"
    ISRC DEQ121426149
    INDEX 01 00:00:00



LOG:

Code:
Exact Audio Copy V1.0 beta 3 from 29. August 2011

EAC extraction logfile from 24. October 2014, 14:40

eRRdeKa / Paradies

Used drive  : TSSTcorpCDDVDW SE-208DB   Adapter: 0  ID: 0

Read mode               : Secure
Utilize accurate stream : Yes
Defeat audio cache      : No
Make use of C2 pointers : No

Read offset correction                      : 6
Overread into Lead-In and Lead-Out          : No
Fill up missing offset samples with silence : Yes
Delete leading and trailing silent blocks   : No
Null samples used in CRC calculations       : Yes
Used interface                              : Native Win32 interface for Win NT & 2000
Gap handling                                : Not detected, thus appended to previous track

Used output format              : User Defined Encoder
Selected bitrate                : 1024 kBit/s
Quality                         : High
Add ID3 tag                     : No
Command line compressor         : C:\Program Files (x86)\Exact Audio Copy\FLAC\FLAC.EXE
Additional command line options : -8 -V -T "ARTIST=%artist%" -T "TITLE=%title%" -T "ALBUM=%albumtitle%" -T "DATE=%year%" -T "TRACKNUMBER=%tracknr%" -T "GENRE=%genre%" -T "COMMENT=%comment%" -T "BAND=%albuminterpret%" -T "COMPOSER=%composer%" %haslyrics%--tag-from-file=LYRICS="%lyricsfile%"%haslyrics% -T "DISCNUMBER=%cdnumber%" -T "TOTALDISCS=%totalcds%" -T "TOTALTRACKS=%numtracks%" %hascover%--picture="%coverfile%"%hascover% %source% -o %dest%


TOC of the extracted CD

     Track |   Start  |  Length  | Start sector | End sector 
    ---------------------------------------------------------
        1  |  0:00.00 |  3:29.23 |         0    |    15697   
        2  |  3:29.23 |  3:56.52 |     15698    |    33449   
        3  |  7:26.00 |  4:09.07 |     33450    |    52131   
        4  | 11:35.07 |  3:46.73 |     52132    |    69154   
        5  | 15:22.05 |  3:01.46 |     69155    |    82775   
        6  | 18:23.51 |  3:37.20 |     82776    |    99070   
        7  | 22:00.71 |  4:14.62 |     99071    |   118182   
        8  | 26:15.58 |  3:07.31 |    118183    |   132238   
        9  | 29:23.14 |  4:19.04 |    132239    |   151667   
       10  | 33:42.18 |  4:29.07 |    151668    |   171849   
       11  | 38:11.25 |  3:36.13 |    171850    |   188062   
       12  | 41:47.38 |  2:44.56 |    188063    |   200418   


Track  1

     Filename D:\EAC [FLAC]\Paradies\01. eRRdeKa - Stroboskop.wav

     Peak level 99.9 %
     Extraction speed 4.5 X
     Track quality 100.0 %
     Test CRC AC922604
     Copy CRC AC922604
     Track not present in AccurateRip database
     Copy OK

Track  2

     Filename D:\EAC [FLAC]\Paradies\02. eRRdeKa - Atme ein atme aus.wav

     Peak level 99.9 %
     Extraction speed 4.5 X
     Track quality 99.9 %
     Test CRC 1890DED2
     Copy CRC 1890DED2
     Track not present in AccurateRip database
     Copy OK

Track  3

     Filename D:\EAC [FLAC]\Paradies\03. eRRdeKa - Das Meer und ich.wav

     Peak level 99.9 %
     Extraction speed 5.2 X
     Track quality 100.0 %
     Test CRC CE7A75EF
     Copy CRC CE7A75EF
     Track not present in AccurateRip database
     Copy OK

Track  4

     Filename D:\EAC [FLAC]\Paradies\04. eRRdeKa - Der perfekte Beat.wav

     Peak level 99.9 %
     Extraction speed 5.6 X
     Track quality 100.0 %
     Test CRC EF9F0C36
     Copy CRC EF9F0C36
     Track not present in AccurateRip database
     Copy OK

Track  5

     Filename D:\EAC [FLAC]\Paradies\05. eRRdeKa - Diggi.wav

     Peak level 99.9 %
     Extraction speed 5.3 X
     Track quality 99.9 %
     Test CRC 66EF1AEF
     Copy CRC 66EF1AEF
     Track not present in AccurateRip database
     Copy OK

Track  6

     Filename D:\EAC [FLAC]\Paradies\06. eRRdeKa - Schwarz weiß.wav

     Peak level 99.9 %
     Extraction speed 6.2 X
     Track quality 100.0 %
     Test CRC 27B85BF6
     Copy CRC 27B85BF6
     Track not present in AccurateRip database
     Copy OK

Track  7

     Filename D:\EAC [FLAC]\Paradies\07. eRRdeKa - Lass mich los.wav

     Peak level 99.9 %
     Extraction speed 6.4 X
     Track quality 100.0 %
     Test CRC C11D87B7
     Copy CRC C11D87B7
     Track not present in AccurateRip database
     Copy OK

Track  8

     Filename D:\EAC [FLAC]\Paradies\08. eRRdeKa - DxFxT.wav

     Peak level 99.9 %
     Extraction speed 6.7 X
     Track quality 100.0 %
     Test CRC 022B9B96
     Copy CRC 022B9B96
     Track not present in AccurateRip database
     Copy OK

Track  9

     Filename D:\EAC [FLAC]\Paradies\09. eRRdeKa - Frau für eine Nacht.wav

     Peak level 99.9 %
     Extraction speed 7.1 X
     Track quality 100.0 %
     Test CRC 4B1A27F6
     Copy CRC 4B1A27F6
     Track not present in AccurateRip database
     Copy OK

Track 10

     Filename D:\EAC [FLAC]\Paradies\10. eRRdeKa - Satan.wav

     Peak level 99.9 %
     Extraction speed 7.3 X
     Track quality 100.0 %
     Test CRC AAFE1DA8
     Copy CRC AAFE1DA8
     Track not present in AccurateRip database
     Copy OK

Track 11

     Filename D:\EAC [FLAC]\Paradies\11. eRRdeKa - Sternenpflücker.wav

     Peak level 99.9 %
     Extraction speed 7.5 X
     Track quality 100.0 %
     Test CRC 22228D09
     Copy CRC 22228D09
     Track not present in AccurateRip database
     Copy OK

Track 12

     Filename D:\EAC [FLAC]\Paradies\12. eRRdeKa - Outro.wav

     Peak level 99.9 %
     Extraction speed 7.6 X
     Track quality 100.0 %
     Test CRC E9225498
     Copy CRC E9225498
     Track not present in AccurateRip database
     Copy OK


None of the tracks are present in the AccurateRip database

No errors occurred

End of status report

==== Log checksum A00B23EB049D46D5B3AA415BDB817EE9CF88E5E886B26047BD39A206643DEF82 ====



uploaded:




oboom: