Slipknot - .5: The Gray Chapter (Deluxe Edition) (2014) [FLAC] Artist: Slipknot Album: 5 The Gray Chapter Year: 2014 Genre: Metal Codec: Free Lossless Audio Codec Playtime: 01:24:46 Size: 569.99 MB TRACKLIST: CD1: 01. XIX (03:10) 02. Sarcastrophe (05:06) 03. AOV (05:33) 04. The Devil In I (05:43) 05. Killpop (03:45) 06. Skeptic (04:47) 07. Lech (04:50) 08. Goodbye (04:35) 09. Nomadic (04:18) 10. The One That Kills The Least (04:12) 11. Custer (04:14) 12. Be Prepared For Hell (01:58) 13. The Negative One (05:25) 14. If Rain Is What You Want (06:21) CD2: 01. Override (05:37) 02. The Burden (05:23) 03. -Silent- (02:00) 04. -Talk- (06:20) 05. -Funny- (01:29) CUE CD1:

Code:
TITLE "5 The Gray Chapter" PERFORMER "Slipknot" CATALOG 0016861754556 REM GENRE "Metal" REM DATE "2014" REM DISCNUMBER 1 REM TOTALDISCS 2 REM DISCID CD0EFD0E REM REPLAYGAIN_ALBUM_GAIN -10.80 dB REM REPLAYGAIN_ALBUM_PEAK 1.000000 FILE "01 - Slipknot - 2014 - XIX.flac" WAVE   TRACK 01 AUDIO     TITLE "XIX"     PERFORMER "Slipknot"     ISRC NLA321400349     FLAGS DCP     REM REPLAYGAIN_TRACK_GAIN -8.52 dB     REM REPLAYGAIN_TRACK_PEAK 0.999969     INDEX 01 00:00:00 FILE "02 - Slipknot - 2014 - Sarcastrophe.flac" WAVE   TRACK 02 AUDIO     TITLE "Sarcastrophe"     PERFORMER "Slipknot"     ISRC NLA321400350     FLAGS DCP     REM REPLAYGAIN_TRACK_GAIN -10.82 dB     REM REPLAYGAIN_TRACK_PEAK 1.000000     INDEX 01 00:00:00 FILE "03 - Slipknot - 2014 - AOV.flac" WAVE   TRACK 03 AUDIO     TITLE "AOV"     PERFORMER "Slipknot"     ISRC NLA321400351     FLAGS DCP     REM REPLAYGAIN_TRACK_GAIN -11.08 dB     REM REPLAYGAIN_TRACK_PEAK 1.000000     INDEX 01 00:00:00 FILE "04 - Slipknot - 2014 - The Devil In I.flac" WAVE   TRACK 04 AUDIO     TITLE "The Devil In I"     PERFORMER "Slipknot"     ISRC NLA321400348     FLAGS DCP     REM REPLAYGAIN_TRACK_GAIN -11.15 dB     REM REPLAYGAIN_TRACK_PEAK 1.000000     INDEX 01 00:00:00 FILE "05 - Slipknot - 2014 - Killpop.flac" WAVE   TRACK 05 AUDIO     TITLE "Killpop"     PERFORMER "Slipknot"     ISRC NLA321400352     FLAGS DCP     REM REPLAYGAIN_TRACK_GAIN -10.50 dB     REM REPLAYGAIN_TRACK_PEAK 1.000000     INDEX 01 00:00:00 FILE "06 - Slipknot - 2014 - Skeptic.flac" WAVE   TRACK 06 AUDIO     TITLE "Skeptic"     PERFORMER "Slipknot"     ISRC NLA321400353     FLAGS DCP     REM REPLAYGAIN_TRACK_GAIN -11.16 dB     REM REPLAYGAIN_TRACK_PEAK 1.000000     INDEX 01 00:00:00 FILE "07 - Slipknot - 2014 - Lech.flac" WAVE   TRACK 07 AUDIO     TITLE "Lech"     PERFORMER "Slipknot"     ISRC NLA321400446     FLAGS DCP     REM REPLAYGAIN_TRACK_GAIN -10.70 dB     REM REPLAYGAIN_TRACK_PEAK 1.000000     INDEX 01 00:00:00 FILE "08 - Slipknot - 2014 - Goodbye.flac" WAVE   TRACK 08 AUDIO     TITLE "Goodbye"     PERFORMER "Slipknot"     ISRC NLA321400440     FLAGS DCP     REM REPLAYGAIN_TRACK_GAIN -9.96 dB     REM REPLAYGAIN_TRACK_PEAK 1.000000     INDEX 01 00:00:00 FILE "09 - Slipknot - 2014 - Nomadic.flac" WAVE   TRACK 09 AUDIO     TITLE "Nomadic"     PERFORMER "Slipknot"     ISRC NLA321400447     FLAGS DCP     REM REPLAYGAIN_TRACK_GAIN -10.23 dB     REM REPLAYGAIN_TRACK_PEAK 1.000000     INDEX 01 00:00:00 FILE "10 - Slipknot - 2014 - The One That Kills The Least.flac" WAVE   TRACK 10 AUDIO     TITLE "The One That Kills The Least"     PERFORMER "Slipknot"     ISRC NLA321400442     FLAGS DCP     REM REPLAYGAIN_TRACK_GAIN -10.54 dB     REM REPLAYGAIN_TRACK_PEAK 1.000000     INDEX 01 00:00:00 FILE "11 - Slipknot - 2014 - Custer.flac" WAVE   TRACK 11 AUDIO     TITLE "Custer"     PERFORMER "Slipknot"     ISRC NLA321400448     FLAGS DCP     REM REPLAYGAIN_TRACK_GAIN -11.59 dB     REM REPLAYGAIN_TRACK_PEAK 1.000000     INDEX 01 00:00:00 FILE "12 - Slipknot - 2014 - Be Prepared For Hell.flac" WAVE   TRACK 12 AUDIO     TITLE "Be Prepared For Hell"     PERFORMER "Slipknot"     ISRC NLA321400444     FLAGS DCP     REM REPLAYGAIN_TRACK_GAIN -5.31 dB     REM REPLAYGAIN_TRACK_PEAK 0.625946     INDEX 01 00:00:00 FILE "13 - Slipknot - 2014 - The Negative One.flac" WAVE   TRACK 13 AUDIO     TITLE "The Negative One"     PERFORMER "Slipknot"     ISRC NLA321400313     FLAGS DCP     REM REPLAYGAIN_TRACK_GAIN -11.28 dB     REM REPLAYGAIN_TRACK_PEAK 1.000000     INDEX 01 00:00:00 FILE "14 - Slipknot - 2014 - If Rain Is What You Want.flac" WAVE   TRACK 14 AUDIO     TITLE "If Rain Is What You Want"     PERFORMER "Slipknot"     ISRC NLA321400445     FLAGS DCP     REM REPLAYGAIN_TRACK_GAIN -9.50 dB     REM REPLAYGAIN_TRACK_PEAK 1.000000     INDEX 01 00:00:00

LOG CD1:

Code:
X Lossless Decoder version 20140504 (147.0)  XLD extraction logfile from 2014-10-17 16:24:34 +0200  Slipknot / 5 The Gray Chapter  Used drive : TSSTcorp CDDVDW SE-218CN (revision MF00) Media type : Pressed CD  Ripper mode             : XLD Secure Ripper Disable audio cache     : OK for the drive with a cache less than 1375KiB Make use of C2 pointers : NO Read offset correction  : 6 Max retry count         : 100 Gap status              : Analyzed, Appended  TOC of the extracted CD      Track |   Start  |  Length  | Start sector | End sector      ---------------------------------------------------------         1  | 00:00:00 | 03:10:11 |         0    |    14260            2  | 03:10:11 | 05:06:06 |     14261    |    37216            3  | 08:16:17 | 05:32:68 |     37217    |    62184            4  | 13:49:10 | 05:42:62 |     62185    |    87896            5  | 19:31:72 | 03:45:05 |     87897    |   104776            6  | 23:17:02 | 04:46:42 |    104777    |   126268            7  | 28:03:44 | 04:50:32 |    126269    |   148050            8  | 32:54:01 | 04:35:10 |    148051    |   168685            9  | 37:29:11 | 04:18:27 |    168686    |   188062           10  | 41:47:38 | 04:11:39 |    188063    |   206926           11  | 45:59:02 | 04:14:35 |    206927    |   226011           12  | 50:13:37 | 01:57:70 |    226012    |   234856           13  | 52:11:32 | 05:25:13 |    234857    |   259244           14  | 57:36:45 | 06:20:68 |    259245    |   287812     AccurateRip Summary     Disc not found in AccurateRip DB.  All Tracks     Album gain               : -10.80 dB     Peak                     : 1.000000     Statistics         Read error                           : 0         Jitter error (maybe fixed)           : 0         Retry sector count                   : 0         Damaged sector count                 : 0  Track 01     Filename : /Volumes/LaCie 1 DL/Slipknot -2014- .5_The Gray Chapter DELUXE (FLAC)/CD1/01 - Slipknot - 2014 - XIX.flac     Pre-gap length : 00:02:00      Track gain               : -8.52 dB     Peak                     : 0.999969     CRC32 hash (test run)    : 70C828D9     CRC32 hash               : 70C828D9     CRC32 hash (skip zero)   : 0C29D5A9     AccurateRip v1 signature : 06B61B33     AccurateRip v2 signature : 421920BB         ->Track not present in AccurateRip database.     Statistics         Read error                           : 0         Jitter error (maybe fixed)           : 0         Retry sector count                   : 0         Damaged sector count                 : 0  Track 02     Filename : /Volumes/LaCie 1 DL/Slipknot -2014- .5_The Gray Chapter DELUXE (FLAC)/CD1/02 - Slipknot - 2014 - Sarcastrophe.flac      Track gain               : -10.82 dB     Peak                     : 1.000000     CRC32 hash (test run)    : 05E1493E     CRC32 hash               : 05E1493E     CRC32 hash (skip zero)   : E7703996     AccurateRip v1 signature : 4996CE7F     AccurateRip v2 signature : CD7A04D8         ->Track not present in AccurateRip database.     Statistics         Read error                           : 0         Jitter error (maybe fixed)           : 0         Retry sector count                   : 0         Damaged sector count                 : 0  Track 03     Filename : /Volumes/LaCie 1 DL/Slipknot -2014- .5_The Gray Chapter DELUXE (FLAC)/CD1/03 - Slipknot - 2014 - AOV.flac      Track gain               : -11.08 dB     Peak                     : 1.000000     CRC32 hash (test run)    : 38A916FC     CRC32 hash               : 38A916FC     CRC32 hash (skip zero)   : 005381DE     AccurateRip v1 signature : AC856846     AccurateRip v2 signature : F7052FF6         ->Track not present in AccurateRip database.     Statistics         Read error                           : 0         Jitter error (maybe fixed)           : 0         Retry sector count                   : 0         Damaged sector count                 : 0  Track 04     Filename : /Volumes/LaCie 1 DL/Slipknot -2014- .5_The Gray Chapter DELUXE (FLAC)/CD1/04 - Slipknot - 2014 - The Devil In I.flac      Track gain               : -11.15 dB     Peak                     : 1.000000     CRC32 hash (test run)    : 47A203BE     CRC32 hash               : 47A203BE     CRC32 hash (skip zero)   : 113D823C     AccurateRip v1 signature : D4F493C5     AccurateRip v2 signature : A799907E         ->Track not present in AccurateRip database.     Statistics         Read error                           : 0         Jitter error (maybe fixed)           : 0         Retry sector count                   : 0         Damaged sector count                 : 0  Track 05     Filename : /Volumes/LaCie 1 DL/Slipknot -2014- .5_The Gray Chapter DELUXE (FLAC)/CD1/05 - Slipknot - 2014 - Killpop.flac      Track gain               : -10.50 dB     Peak                     : 1.000000     CRC32 hash (test run)    : 44F39A65     CRC32 hash               : 44F39A65     CRC32 hash (skip zero)   : 79812252     AccurateRip v1 signature : 968BBFC3     AccurateRip v2 signature : FFEE54A5         ->Track not present in AccurateRip database.     Statistics         Read error                           : 0         Jitter error (maybe fixed)           : 0         Retry sector count                   : 0         Damaged sector count                 : 0  Track 06     Filename : /Volumes/LaCie 1 DL/Slipknot -2014- .5_The Gray Chapter DELUXE (FLAC)/CD1/06 - Slipknot - 2014 - Skeptic.flac      Track gain               : -11.16 dB     Peak                     : 1.000000     CRC32 hash (test run)    : 7FEEC5BE     CRC32 hash               : 7FEEC5BE     CRC32 hash (skip zero)   : 61D4DA51     AccurateRip v1 signature : 6F0249DA     AccurateRip v2 signature : DE25EF8E         ->Track not present in AccurateRip database.     Statistics         Read error                           : 0         Jitter error (maybe fixed)           : 0         Retry sector count                   : 0         Damaged sector count                 : 0  Track 07     Filename : /Volumes/LaCie 1 DL/Slipknot -2014- .5_The Gray Chapter DELUXE (FLAC)/CD1/07 - Slipknot - 2014 - Lech.flac      Track gain               : -10.70 dB     Peak                     : 1.000000     CRC32 hash (test run)    : 3D388603     CRC32 hash               : 3D388603     CRC32 hash (skip zero)   : 041499F7     AccurateRip v1 signature : 988F5C12     AccurateRip v2 signature : EB1B7BD2         ->Track not present in AccurateRip database.     Statistics         Read error                           : 0         Jitter error (maybe fixed)           : 0         Retry sector count                   : 0         Damaged sector count                 : 0  Track 08     Filename : /Volumes/LaCie 1 DL/Slipknot -2014- .5_The Gray Chapter DELUXE (FLAC)/CD1/08 - Slipknot - 2014 - Goodbye.flac      Track gain               : -9.96 dB     Peak                     : 1.000000     CRC32 hash (test run)    : E6256786     CRC32 hash               : E6256786     CRC32 hash (skip zero)   : 44075AC3     AccurateRip v1 signature : 0A7DC20A     AccurateRip v2 signature : 2FABD4B0         ->Track not present in AccurateRip database.     Statistics         Read error                           : 0         Jitter error (maybe fixed)           : 0         Retry sector count                   : 0         Damaged sector count                 : 0  Track 09     Filename : /Volumes/LaCie 1 DL/Slipknot -2014- .5_The Gray Chapter DELUXE (FLAC)/CD1/09 - Slipknot - 2014 - Nomadic.flac      Track gain               : -10.23 dB     Peak                     : 1.000000     CRC32 hash (test run)    : FA335FFD     CRC32 hash               : FA335FFD     CRC32 hash (skip zero)   : E3E38BF1     AccurateRip v1 signature : D2C473EE     AccurateRip v2 signature : 13A64A6D         ->Track not present in AccurateRip database.     Statistics         Read error                           : 0         Jitter error (maybe fixed)           : 0         Retry sector count                   : 0         Damaged sector count                 : 0  Track 10     Filename : /Volumes/LaCie 1 DL/Slipknot -2014- .5_The Gray Chapter DELUXE (FLAC)/CD1/10 - Slipknot - 2014 - The One That Kills The Least.flac      Track gain               : -10.54 dB     Peak                     : 1.000000     CRC32 hash (test run)    : 532AAF47     CRC32 hash               : 532AAF47     CRC32 hash (skip zero)   : DA102E58     AccurateRip v1 signature : A1CEA9DB     AccurateRip v2 signature : EC6ACA90         ->Track not present in AccurateRip database.     Statistics         Read error                           : 0         Jitter error (maybe fixed)           : 0         Retry sector count                   : 0         Damaged sector count                 : 0  Track 11     Filename : /Volumes/LaCie 1 DL/Slipknot -2014- .5_The Gray Chapter DELUXE (FLAC)/CD1/11 - Slipknot - 2014 - Custer.flac      Track gain               : -11.59 dB     Peak                     : 1.000000     CRC32 hash (test run)    : 98379280     CRC32 hash               : 98379280     CRC32 hash (skip zero)   : 4377753A     AccurateRip v1 signature : BBC90E72     AccurateRip v2 signature : CCFAB8AA         ->Track not present in AccurateRip database.     Statistics         Read error                           : 0         Jitter error (maybe fixed)           : 0         Retry sector count                   : 0         Damaged sector count                 : 0  Track 12     Filename : /Volumes/LaCie 1 DL/Slipknot -2014- .5_The Gray Chapter DELUXE (FLAC)/CD1/12 - Slipknot - 2014 - Be Prepared For Hell.flac      Track gain               : -5.31 dB     Peak                     : 0.625946     CRC32 hash (test run)    : 68855244     CRC32 hash               : 68855244     CRC32 hash (skip zero)   : EDFFF307     AccurateRip v1 signature : ED0890EE     AccurateRip v2 signature : EC3DC4E8         ->Track not present in AccurateRip database.     Statistics         Read error                           : 0         Jitter error (maybe fixed)           : 0         Retry sector count                   : 0         Damaged sector count                 : 0  Track 13     Filename : /Volumes/LaCie 1 DL/Slipknot -2014- .5_The Gray Chapter DELUXE (FLAC)/CD1/13 - Slipknot - 2014 - The Negative One.flac      Track gain               : -11.28 dB     Peak                     : 1.000000     CRC32 hash (test run)    : 10C30621     CRC32 hash               : 10C30621     CRC32 hash (skip zero)   : 7AACBF92     AccurateRip v1 signature : 61F520EE     AccurateRip v2 signature : 84895CF1         ->Track not present in AccurateRip database.     Statistics         Read error                           : 0         Jitter error (maybe fixed)           : 0         Retry sector count                   : 0         Damaged sector count                 : 0  Track 14     Filename : /Volumes/LaCie 1 DL/Slipknot -2014- .5_The Gray Chapter DELUXE (FLAC)/CD1/14 - Slipknot - 2014 - If Rain Is What You Want.flac      Track gain               : -9.50 dB     Peak                     : 1.000000     CRC32 hash (test run)    : F34330DE     CRC32 hash               : F34330DE     CRC32 hash (skip zero)   : 6CCE8DB2     AccurateRip v1 signature : 659605A0     AccurateRip v2 signature : D78B0E58         ->Track not present in AccurateRip database.     Statistics         Read error                           : 0         Jitter error (maybe fixed)           : 0         Retry sector count                   : 0         Damaged sector count                 : 0  No errors occurred  End of status report  -----BEGIN XLD SIGNATURE----- TmS8BlLBVM0ZQidZhOefsXCDi_.AD5a2c1mOvTCzDsnhiA3emB4.kqWttBU7E_Li8nV2_sVr5RO00LXj0fmo9Lsm36Wc57NXe3cBM34 -----END XLD SIGNATURE-----

CUE CD2:

Code:
TITLE "5 The Gray Chapter" PERFORMER "Slipknot" CATALOG 0016861754556 REM GENRE "Metal" REM DATE "2014" REM DISCNUMBER 2 REM TOTALDISCS 2 REM DISCID 3A04E005 REM REPLAYGAIN_ALBUM_GAIN -9.78 dB REM REPLAYGAIN_ALBUM_PEAK 1.000000 FILE "01 - Slipknot - 2014 - Override.flac" WAVE   TRACK 01 AUDIO     TITLE "Override"     PERFORMER "Slipknot"     ISRC NLA321400449     FLAGS DCP     REM REPLAYGAIN_TRACK_GAIN -10.16 dB     REM REPLAYGAIN_TRACK_PEAK 1.000000     INDEX 01 00:00:00 FILE "02 - Slipknot - 2014 - The Burden.flac" WAVE   TRACK 02 AUDIO     TITLE "The Burden"     PERFORMER "Slipknot"     ISRC NLA321400450     FLAGS DCP     REM REPLAYGAIN_TRACK_GAIN -10.40 dB     REM REPLAYGAIN_TRACK_PEAK 1.000000     INDEX 01 00:00:00 FILE "03 - Slipknot - 2014 - -Silent-.flac" WAVE   TRACK 03 AUDIO     TITLE "-Silent-"     PERFORMER "Slipknot"     ISRC NLA321400459     FLAGS DCP     REM REPLAYGAIN_TRACK_GAIN 64.81 dB     REM REPLAYGAIN_TRACK_PEAK 0.000183     INDEX 01 00:00:00 FILE "04 - Slipknot - 2014 - -Talk-.flac" WAVE   TRACK 04 AUDIO     TITLE "-Talk-"     PERFORMER "Slipknot"     ISRC NLA321400460     FLAGS DCP     REM REPLAYGAIN_TRACK_GAIN 0.26 dB     REM REPLAYGAIN_TRACK_PEAK 0.990509     INDEX 01 00:00:00 FILE "05 - Slipknot - 2014 - -Funny-.flac" WAVE   TRACK 05 AUDIO     TITLE "-Funny-"     PERFORMER "Slipknot"     ISRC NLA321400461     FLAGS DCP     REM REPLAYGAIN_TRACK_GAIN -2.66 dB     REM REPLAYGAIN_TRACK_PEAK 0.688751     INDEX 01 00:00:00

LOG CD2:

Code:
X Lossless Decoder version 20140504 (147.0)  XLD extraction logfile from 2014-10-17 16:43:58 +0200  Slipknot / 5 The Gray Chapter  Used drive : TSSTcorp CDDVDW SE-218CN (revision MF00) Media type : Pressed CD  Ripper mode             : XLD Secure Ripper Disable audio cache     : OK for the drive with a cache less than 1375KiB Make use of C2 pointers : NO Read offset correction  : 6 Max retry count         : 100 Gap status              : Analyzed, Appended  TOC of the extracted CD      Track |   Start  |  Length  | Start sector | End sector      ---------------------------------------------------------         1  | 00:00:00 | 05:37:20 |         0    |    25294            2  | 05:37:20 | 05:23:22 |     25295    |    49541            3  | 11:00:42 | 02:00:00 |     49542    |    58541            4  | 13:00:42 | 06:19:39 |     58542    |    87005            5  | 19:20:06 | 01:28:54 |     87006    |    93659     AccurateRip Summary     Disc not found in AccurateRip DB.  All Tracks     Album gain               : -9.78 dB     Peak                     : 1.000000     Statistics         Read error                           : 0         Jitter error (maybe fixed)           : 0         Retry sector count                   : 0         Damaged sector count                 : 0  Track 01     Filename : /Volumes/LaCie 1 DL/Slipknot -2014- .5_The Gray Chapter DELUXE (FLAC)/CD2/01 - Slipknot - 2014 - Override.flac     Pre-gap length : 00:02:00      Track gain               : -10.16 dB     Peak                     : 1.000000     CRC32 hash (test run)    : 5BAA2B5E     CRC32 hash               : 5BAA2B5E     CRC32 hash (skip zero)   : ED7216F3     AccurateRip v1 signature : 4C76B6F3     AccurateRip v2 signature : 65255D7C         ->Track not present in AccurateRip database.     Statistics         Read error                           : 0         Jitter error (maybe fixed)           : 0         Retry sector count                   : 0         Damaged sector count                 : 0  Track 02     Filename : /Volumes/LaCie 1 DL/Slipknot -2014- .5_The Gray Chapter DELUXE (FLAC)/CD2/02 - Slipknot - 2014 - The Burden.flac      Track gain               : -10.40 dB     Peak                     : 1.000000     CRC32 hash (test run)    : 69EB72A5     CRC32 hash               : 69EB72A5     CRC32 hash (skip zero)   : F82B0492     AccurateRip v1 signature : 348C6CF1     AccurateRip v2 signature : ACE95878         ->Track not present in AccurateRip database.     Statistics         Read error                           : 0         Jitter error (maybe fixed)           : 0         Retry sector count                   : 0         Damaged sector count                 : 0  Track 03     Filename : /Volumes/LaCie 1 DL/Slipknot -2014- .5_The Gray Chapter DELUXE (FLAC)/CD2/03 - Slipknot - 2014 - -Silent-.flac      Track gain               : 64.81 dB     Peak                     : 0.000183     CRC32 hash (test run)    : F9D82ED5     CRC32 hash               : F9D82ED5     CRC32 hash (skip zero)   : 4A72FEDD     AccurateRip v1 signature : 519C4CE5     AccurateRip v2 signature : 679B5DEF         ->Track not present in AccurateRip database.     Statistics         Read error                           : 0         Jitter error (maybe fixed)           : 0         Retry sector count                   : 0         Damaged sector count                 : 0  Track 04     Filename : /Volumes/LaCie 1 DL/Slipknot -2014- .5_The Gray Chapter DELUXE (FLAC)/CD2/04 - Slipknot - 2014 - -Talk-.flac      Track gain               : 0.26 dB     Peak                     : 0.990509     CRC32 hash (test run)    : A8B6098E     CRC32 hash               : A8B6098E     CRC32 hash (skip zero)   : F4468C08     AccurateRip v1 signature : E5A3CEDF     AccurateRip v2 signature : B5354FA8         ->Track not present in AccurateRip database.     Statistics         Read error                           : 0         Jitter error (maybe fixed)           : 0         Retry sector count                   : 0         Damaged sector count                 : 0  Track 05     Filename : /Volumes/LaCie 1 DL/Slipknot -2014- .5_The Gray Chapter DELUXE (FLAC)/CD2/05 - Slipknot - 2014 - -Funny-.flac      Track gain               : -2.66 dB     Peak                     : 0.688751     CRC32 hash (test run)    : 0AC5EFC1     CRC32 hash               : 0AC5EFC1     CRC32 hash (skip zero)   : AF3F4E99     AccurateRip v1 signature : 3F2392CD     AccurateRip v2 signature : C14E8C78         ->Track not present in AccurateRip database.     Statistics         Read error                           : 0         Jitter error (maybe fixed)           : 0         Retry sector count                   : 0         Damaged sector count                 : 0  No errors occurred  End of status report  -----BEGIN XLD SIGNATURE----- aL5OcxLMWeWAsYL2P8EKvibHZu75PbavzsmdAnbKFpXiFvLXLwPPiGIWd8oW58LQ1h7M2Td0VgbD152xwZY2CC2yxPeezBLyly3TqGe -----END XLD SIGNATURE-----

uploaded:
oboom: