.

WWE.Hell.in.a.Cell.2014.Kickoff.720p.WEB-DL.4500k.x264-DN





Titel: WWE Hell in a Cell 2014 (Kickoff)
Genre: Wrestling
Sprache/n: Englisch
Hoster: Uploaded.net, Share-online.biz, oboom.com, Load.to
Größe: 1944,34 MB
Parts: 10 Dateien
Passwort: NeXt


Hell in a Cell (2014) was a professional wrestling pay-per-view (PPV) event produced by WWE. It took place on October 26, 2014 at the American Airlines Center in Dallas, Texas.


nfo:


Code:
WWE.Hell.in.a.Cell.2014.Kickoff.720p.WEB-DL.4500k.x264-DN.mp4
Format                                   : MPEG-4
Format profile                           : Base Media
Codec ID                                 : isom
File size                                : 1.84 GiB
Duration                                 : 58mn 33s
Overall bit rate mode                    : Variable
Overall bit rate                         : 4 507 Kbps
Writing application                      : Lavf55.32.101


Video
ID                                       : 1
Format                                   : AVC
Format/Info                              : Advanced Video Codec
Format profile                           : High@L4.0
Format settings, CABAC                   : Yes
Format settings, ReFrames                : 4 frames
Codec ID                                 : avc1
Codec ID/Info                            : Advanced Video Coding
Duration                                 : 58mn 33s
Bit rate mode                            : Constant
Bit rate                                 : 4 372 Kbps
Width                                    : 1 280 pixels
Height                                   : 720 pixels
Display aspect ratio                     : 16:9
Frame rate mode                          : Constant
Frame rate                               : 29.970 fps
Color space                              : YUV
Chroma subsampling                       : 4:2:0
Bit depth                                : 8 bits
Scan type                                : Progressive
Bits/(Pixel*Frame)                       : 0.158
Stream size                              : 1.79 GiB (97%)


Audio
ID                                       : 2
Format                                   : AAC
Format/Info                              : Advanced Audio Codec
Format profile                           : LC
Codec ID                                 : 40
Duration                                 : 58mn 33s
Bit rate mode                            : Variable
Bit rate                                 : 125 Kbps
Maximum bit rate                         : 133 Kbps
Channel(s)                               : 2 channels
Channel positions                        : Front: L R
Sampling rate                            : 48.0 KHz
Compression mode                         : Lossy
Stream size                              : 52.5 MiB (3%)

Mirror: 1


Uploaded.net


Mirror: 2


Share-online.biz


Mirror: 3


oboom.com


Mirror: 4


Load.to
.