Bedanken Bedanken:  0
Ergebnis 1 bis 2 von 2
  1. #1

    WWE Hell In A Cell 2014 German WEB - DL H264 - WU

    .

    WWE.Hell.In.A.Cell.2014.German.WEB-DL.H264-WU





    Titel: WWE Hell in a Cell 2014 (PPV)
    Genre: Wrestling
    Sprache/n: Deutsch
    Hoster: Uploaded.net, oboom.com, Share-online.biz
    Größe: 2531,71 MB
    Parts: 13 Dateien
    Passwort: NeXt


    Hell in a Cell (2014) was a professional wrestling pay-per-view (PPV) event produced by WWE. It took place on October 26, 2014 at the American Airlines Center in Dallas, Texas.


    nfo:


    Code:
    WWE.Hell.In.A.Cell.2014.German.WEB-DL.H264-WU.flv
    Format                                   : Flash Video
    File size                                : 2.40 GiB
    Duration                                 : 2h 57mn
    Overall bit rate                         : 1 939 Kbps
    Writing application                      : Open Broadcaster Software v0.637b
    fileSize                                 : 2577579213.000
    
    
    Video
    Duration                                 : 2h 57mn
    Bit rate                                 : 1 800 Kbps
    Width                                    : 1 920 pixels
    Height                                   : 1 080 pixels
    Display aspect ratio                     : 16:9
    Frame rate mode                          : Constant
    Frame rate                               : 30.000 fps
    Bits/(Pixel*Frame)                       : 0.029
    Stream size                              : 2.23 GiB (93%)
    
    
    Audio
    Format                                   : AAC
    Format/Info                              : Advanced Audio Codec
    Format profile                           : LC
    Codec ID                                 : 10
    Duration                                 : 2h 57mn
    Bit rate                                 : 128 Kbps
    Channel(s)                               : 2 channels
    Channel positions                        : Front: L R
    Sampling rate                            : 48.0 KHz
    Compression mode                         : Lossy
    Stream size                              : 162 MiB (7%)

    Mirror: 1


    Uploaded.net


    Mirror: 2


    oboom.com


    Mirror: 3


    Share-online.biz
    .

  2. #2
    Avatar von Zeus14

    Registriert seit
    Jul 2012
    Beiträge
    2.442
    Achievements:
    7 days registered

    WWE Hell In A Cell 2014 German WEB - DL H264 - WU



    Match Card
    •Hell in a Cell: John Cena vs. Randy Orton
    •Hell in a Cell: Dean Ambrose vs. Seth Rollins
    •United States Championship: Sheamus (c) vs. The Miz
    •Intercontinental Championship: 2-out-of-3-Falls: Dolph Ziggler (c) vs. Cesaro
    •Big Show vs. Rusev
    •Nikki Bella vs. Brie Bella
    •WWE Divas Championship: AJ Lee (c) vs. Paige
    •WWE Tag Team Championship: Goldust & Stardust (c) vs. The Usos

    RELEASE INFO

    Format : Flash Video ( flv) at 1 939 Kbps
    Gre : 2,40 GiB
    Lnge : 2h 57min 14s 0ms
    Video #0 : at 1 800 Kbps
    Aspect : 1920 x 1080 (1.778) at 30.000 fps
    Audio #0 : AAC at 128 Kbps
    Infos : 2 Kanle, 48,0 KHz
    Sprache : Deutsch



    Laufzeit ca.....: 177 Minuten
    Genres..........: Action/Show
    Languages.......: German
    Format..........: MKV
    Gesamtgrösse ca.: 2400 MB
    RAR-Dateien.....: 25

    ALLE RAR DATEIEN UNTEREINANDER KOMPATIBEL!
    DOWNLOAD HOSTER:

    uploaded




    Share-Online




    Oboom




Berechtigungen

  • Neue Themen erstellen: Nein
  • Themen beantworten: Nein
  • Anhänge hochladen: Nein
  • Beiträge bearbeiten: Nein
  •