.

WWE.Hell.in.a.Cell.2014.540p.WEB-DL.2400k.x264-DN





Titel: WWE Hell in a Cell 2014 (PPV)
Genre: Wrestling
Sprache/n: Englisch
Hoster: Uploaded.net, Share-online.biz, oboom.com
Größe: 3131,17 MB
Parts: 16 Dateien
Passwort: NeXt


Hell in a Cell (2014) was a professional wrestling pay-per-view (PPV) event produced by WWE. It took place on October 26, 2014 at the American Airlines Center in Dallas, Texas.


nfo:


Code:
WWE.Hell.in.a.Cell.2014.540p.WEB-DL.2400k.x264-DN.mp4
Format                                   : MPEG-4
Format profile                           : Base Media
Codec ID                                 : isom
File size                                : 2.97 GiB
Duration                                 : 2h 56mn
Overall bit rate mode                    : Constant
Overall bit rate                         : 2 407 Kbps
Writing application                      : Lavf55.32.101


Video
ID                                       : 1
Format                                   : AVC
Format/Info                              : Advanced Video Codec
Format profile                           : Main@L3.1
Format settings, CABAC                   : Yes
Format settings, ReFrames                : 4 frames
Codec ID                                 : avc1
Codec ID/Info                            : Advanced Video Coding
Duration                                 : 2h 56mn
Bit rate mode                            : Constant
Bit rate                                 : 2 272 Kbps
Width                                    : 960 pixels
Height                                   : 540 pixels
Display aspect ratio                     : 16:9
Frame rate mode                          : Constant
Frame rate                               : 29.970 fps
Color space                              : YUV
Chroma subsampling                       : 4:2:0
Bit depth                                : 8 bits
Scan type                                : Progressive
Bits/(Pixel*Frame)                       : 0.146
Stream size                              : 2.80 GiB (94%)


Audio
ID                                       : 2
Format                                   : AAC
Format/Info                              : Advanced Audio Codec
Format profile                           : LC
Codec ID                                 : 40
Duration                                 : 2h 56mn
Bit rate mode                            : Constant
Bit rate                                 : 125 Kbps
Channel(s)                               : 2 channels
Channel positions                        : Front: L R
Sampling rate                            : 48.0 KHz
Compression mode                         : Lossy
Stream size                              : 158 MiB (5%)

Mirror: 1


Uploaded.net


Mirror: 2


Share-online.biz


Mirror: 3


oboom.com
.