.

WWE.Hell.in.a.Cell.2014.360p.WEB-DL.1200k.x264-DN





Titel: WWE Hell in a Cell 2014 (PPV)
Genre: Wrestling
Sprache/n: Englisch
Hoster: oboom.com, Uploaded.net, Share-online.biz
Größe: 1570,21 MB
Parts: 8 Dateien
Passwort: NeXt


Hell in a Cell (2014) was a professional wrestling pay-per-view (PPV) event produced by WWE. It took place on October 26, 2014 at the American Airlines Center in Dallas, Texas.


nfo:


Code:
WWE.Hell.in.a.Cell.2014.360p.WEB-DL.1200k.x264-DN.mp4
Format                                   : MPEG-4
Format profile                           : Base Media
Codec ID                                 : isom
File size                                : 1.49 GiB
Duration                                 : 2h 56mn
Overall bit rate mode                    : Variable
Overall bit rate                         : 1 207 Kbps
Writing application                      : Lavf55.32.101


Video
ID                                       : 1
Format                                   : AVC
Format/Info                              : Advanced Video Codec
Format profile                           : Main@L3.1
Format settings, CABAC                   : Yes
Format settings, ReFrames                : 4 frames
Codec ID                                 : avc1
Codec ID/Info                            : Advanced Video Coding
Duration                                 : 2h 56mn
Bit rate mode                            : Constant
Bit rate                                 : 1 104 Kbps
Width                                    : 640 pixels
Height                                   : 360 pixels
Display aspect ratio                     : 16:9
Frame rate mode                          : Constant
Frame rate                               : 29.970 fps
Color space                              : YUV
Chroma subsampling                       : 4:2:0
Bit depth                                : 8 bits
Scan type                                : Progressive
Bits/(Pixel*Frame)                       : 0.160
Stream size                              : 1.36 GiB (92%)


Audio
ID                                       : 2
Format                                   : AAC
Format/Info                              : Advanced Audio Codec
Format profile                           : LC
Codec ID                                 : 40
Duration                                 : 2h 56mn
Bit rate mode                            : Variable
Bit rate                                 : 93.5 Kbps
Maximum bit rate                         : 101 Kbps
Channel(s)                               : 2 channels
Channel positions                        : Front: L R
Sampling rate                            : 48.0 KHz
Compression mode                         : Lossy
Stream size                              : 118 MiB (8%)

Mirror: 1


oboom.com


Mirror: 2


Uploaded.net


Mirror: 3


Share-online.biz
.