Bedanken Bedanken:  0
Ergebnis 1 bis 2 von 2
  1. #1

    Registriert seit
    Jul 2014
    Beiträge
    2.689
    Achievements:
    7 days registered

    Die Ritter der Kokosnuss 1975 German AC3 BDRip XviD INTERNAL - ARC

    Die.Ritter.der.Kokosnuss.1975.German.AC3.BDRip.Xvi D.INTERNAL-ARC


    Die Ritter der Kokosnuß
    Genre: Comedy | Laufzeit: 92 Min. | Sprache/n: GER

    Im frühen Mittelalter durchwandert König Artus das noch relativ unbehauste England und schart eine Anzahl edler Recken um sich, mit denen er das Reich von den einfallenden Franzosen befreien und den sagenhaften Heiligen Gral erobern will. Leider handelt es sich bei seiner Truppe um eine Ansammlung rechter Trottel, so daß sein Unternehmen bald von zahlreichen Rückschlägen heimgesucht wird.

    Ohne den geringsten Respekt vor der überlieferten Vorlage fackelt das Monty-Python-Team ein weiteres Gag- und Nonsensfeuerwerk der Extraklasse ab. Szenen wie Artus' Begegnung mit dem Schwarzen Ritter ("einigen wir uns auf Unentschieden"), Lancelot Cleese's Erstürmung einer Burg ("schönen Gruß aus Solingen") oder die zweite Erfindung des trojanischen Pferdes gehören zweifellos zu den absoluten Highlights im Schaffenswerk der britischen Komikertruppe. Ein äußerst schrilles Vergnügen, das man sich auf keinen Fall vor "Excalibur" oder "Der 1. Ritter" anschauen sollte.

    NFO:


    hey sucker hide your crap!


    for some quality ARChive!

    qomaß 2011

    Monty Python and the Holy Grail (1975)

    Release.Date.: 07.04.2012
    Runtime......: 92 Min
    Genre........: Adventure | Comedy
    Video........: 720 x 432 @ 1966 kbps
    Audio........: AC3 5.1 DE 448 kbps
    Imdb.........: http://www.imdb.com/title/tt0071853/
    Rating.......: 8.4/10 (201,868 votes)


    Video Stream: BD | Audio Stream: AC3 | Video Codec: DivX / XviD
    Hoster: SO, OB, UL, NF, UB, BS, FS | Größe: 1597,01 MB | Parts: 7 | Passwort: - wird nicht benötigt -

    +++ Alle Mirrors sind miteinander kompatibel +++

    Share-online.biz
    Oboom.com
    Uploaded.net
    NitroFlare.com
    Uploadable.ch
    Bitshare.com
    Freakshare.com
    Falls etwas down ist bitte PN mit Link zum Thread an mich.
    Andernfalls kein Support!

  2. #2

    Registriert seit
    May 2015
    Beiträge
    8.399
    Achievements:
    Overdrive

    Die Ritter der Kokosnuss 1975 German AC3 BDRip XviD INTERNAL-ARC


    Die Ritter der Kokosnuss
    Die.Ritter.der.Kokosnuss.1975.German.AC3.BDRip.Xvi D.INTERNAL-ARC






    Im frühen Mittelalter durchwandert König Artus das noch relativ unbewohnte England mit seinen edlen Recken, um das Reich von den einfallenden Franzosen zu befreien und den sagenhaften Heiligen Gral zu erobern. Leider handelt es sich bei seiner Truppe um eine Ansammlung irrer Trottel und sein Unternehmen erleidet schnell zahlreiche Rückschläge.







    Code:
    General
    Format                                   : AVI
    Format/Info                              : Audio Video Interleave
    File size                                : 1.56 GiB
    Duration                                 : 1h 32mn
    Overall bit rate                         : 2 424 Kbps
    Writing application                      : VirtualDubMod 1.5.10.2 (build 2540/release)
    Writing library                          : VirtualDubMod build 2540/release
    
    Video
    ID                                       : 0
    Format                                   : MPEG-4 Visual
    Format profile                           : Advanced Simple@L5
    Format settings, BVOP                    : 2
    Format settings, QPel                    : No
    Format settings, GMC                     : No warppoints
    Format settings, Matrix                  : Default (H.263)
    Codec ID                                 : XVID
    Codec ID/Hint                            : XviD
    Duration                                 : 1h 32mn
    Bit rate                                 : 1 966 Kbps
    Width                                    : 720 pixels
    Height                                   : 432 pixels
    Display aspect ratio                     : 5:3
    Frame rate                               : 23.976 fps
    Color space                              : YUV
    Chroma subsampling                       : 4:2:0
    Bit depth                                : 8 bits
    Scan type                                : Progressive
    Compression mode                         : Lossy
    Bits/(Pixel*Frame)                       : 0.264
    Stream size                              : 1.27 GiB (81%)
    Writing library                          : XviD 64
    
    Audio
    ID                                       : 1
    Format                                   : AC-3
    Format/Info                              : Audio Coding 3
    Mode extension                           : CM (complete main)
    Format settings, Endianness              : Big
    Codec ID                                 : 2000
    Duration                                 : 1h 32mn
    Bit rate mode                            : Constant
    Bit rate                                 : 448 Kbps
    Channel(s)                               : 6 channels
    Channel positions                        : Front: L C R, Side: L R, LFE
    Sampling rate                            : 48.0 KHz
    Compression mode                         : Lossy
    Stream size                              : 295 MiB (18%)
    Alignment                                : Split accross interleaves
    Interleave, duration                     : 42 ms (1.00 video frame)
    Interleave, preload duration             : 500 ms





    Genre: Comedy
    Laufzeit: 92 Min.
    Sprache/n:
    Video Stream: BD-RIP
    Audio Stream: Dolby Digital 5.1
    Video Codec: MPEG-4 DivX / Xvid






    Hoster: Uploaded.net, Share-online.biz
    Größe: 1597.02 MB
    Parts: 16 Dateien

    500 MB Parts



    Download



    Download



Berechtigungen

  • Neue Themen erstellen: Nein
  • Themen beantworten: Nein
  • Anhänge hochladen: Nein
  • Beiträge bearbeiten: Nein
  •