Bedanken Bedanken:  0
Ergebnis 1 bis 2 von 2
  1. #1


    Registriert seit
    Nov 2012
    Beiträge
    77
    Points
    25
    Level
    1
    Level completed: 49%, Points required for next Level: 25
    Overall activity: 0%
    Achievements:
    7 days registered

    Tanz Der Teufel II Jetzt Wird Noch Mehr Getanzt UNCUT REMASTERED GERMAN 1987 DL BDRiP





    Tanz.Der.Teufel.II.Jetzt.Wird.Noch.Mehr.Getanzt.UN CUT.REMASTERED.GERMAN.1987.DL.BDRiP.x264-GOREHOUNDS

    Das Pärchen Ash (Bruce Campbell) und Linda (Denise Bixler) will mit Freunden ein Wochenende in einer kleinen Holzhütte in den Bergen verbringen. Deren früherer Besitzer Dr. Knowby war unter anderem mit der Erforschung paranormaler Phänomene befasst. Als Ash ein Tonband des Wissenschaftlers abspielt, auf dem Verse aus dem berüchtigten 'Buch des Todes' zitiert werden, beschwört er unwissentlich die Mächte des Bösen herauf. Unheimliche Wesen nehmen von Ash Besitz und zwingen ihn, Linda zu töten.


    Titel: Tanz der Teufel 2 | Uncut !

    Sprache: Deutsch Englisch | Genre: Horror

    Video: BD-RIP | Audio: AC3 2.0 | Format: .mkv / .mp4

    Infos: iMDB | Trailer: Youtube

    Größe: 1120 MB | Parts: 3

    = | = | =

    NFO:

    Code:
    GOREHOUNDS
    
    F   p                       q   F
    
            Y""'                         `""Y
    Tanz der Teufel II - Jetzt wird noch mehr getanzt
                      *UNCUT*  (1987)
    
    Release Date: 08.10.2013  Genre: Horror, Comedy
    Store Date..: 24.09.2013  FSK..: Ungeprueft
    Cine Date...: 28.01.1988  Label: Studiocanal
    
    Source.: Blu-Ray
    Reso...: 720x390 (1.85:1 @ 23.976FPS)
    Bitrate: 1197 (CRF-19)
    
    Audio.1: German AC3 2.0 @ 192 kbps
    Audio.2: English AC3 5.1 @ 384 kbps
    
    Subs...: Forced [x]  //  Vobsubs: German
    
    Plot:
    
    http://tinyurl.com/ntwt5r7
    
    iMDB-Link...: www.imdb.com/title/tt0092991/
    iMDB-Rating.: 7.8/10 (81.521 votes)
    
    OFDB-Link...: http://tinyurl.com/o2tdcbt
    OFDB-Fassung: http://tinyurl.com/qyv6w9f
    
    Fassungs-Vergleich: http://tinyurl.com/pehxkgs
    
    Uncut Source aus .DE
    
    Da die erste BD V  von Kinowelt vom mastering
    her nicht das gezeigt hat, was das Bild tat-
    sSchlich kann, hat sich nun StudioCanal
    erbarmt eine richtige BD Version zu TDTII auf
    dern Markt zu bringen.
                    W.A.N.T.E.D.
    
    1. Suppliers UNCUT und/oder Retail BD s/DVD s
    
    [GOREHOUNDS2012]
    
    . + t h e n y o u s e e t h e l i g h t



    .:: Uploaded.net ::.


    .:: Share-online.biz ::.


    .:: Oboom.com ::.



  2. #2

    Registriert seit
    May 2015
    Beiträge
    8.330
    Achievements:
    Overdrive

    Tanz Der Teufel II Jetzt Wird Noch Mehr Getanzt UNCUT REMASTERED GERMAN 1987 DL BDRiP


    Tanz Der Teufel II Jetzt Wird Noch Mehr Getanzt
    Tanz.Der.Teufel.II.Jetzt.Wird.Noch.Mehr.Getanzt.UN CUT.REMASTERED.GERMAN.1987.DL.BDRiP.x264-GOREHOUNDS





    Infos: Uncut

    Als Ash zusammen mit seiner Freundin Linda ein geruhsames Wochenende in einer abgelegenen Gegend verbringen will, findet er in der Hütte, die er gemietet hat, ein Tonbandgerät. Auf ihm befinden sich die Aufzeichnungen eines Professors, der vorher hier wohnte, in denen er über das "Buch der Toten" redet, das er entdeckt hat. Am Ende der Aufnahme ist ein Spruch zu hören der böse Geister im umliegenden Wald beschwört. Als Folge wird Linda in einen Dämon verwandelt, und Ash bleibt nichts anderes übrig als sie zu töten. Am nächsten Morgen will er fliehen will, doch der Rückweg ist abgeschnitten, daher muß er sich erneut den Gefahren stellen.







    Code:
    General
    Format                                   : Matroska
    Format version                           : Version 4 / Version 2
    File size                                : 1.07 GiB
    Duration                                 : 1h 24mn
    Overall bit rate                         : 1 809 Kbps
    Movie name                               : Tanz der Teufel II - Jetzt wird noch mehr getanzt (1987)
    Encoded date                             : UTC 2013-10-08 08:42:27
    Writing application                      : mkvmerge v6.4.1 ('Omega Point') built on Sep 16 2013 22:05:10
    Writing library                          : libebml v1.3.0 + libmatroska v1.4.1
    
    Video
    ID                                       : 1
    Format                                   : AVC
    Format/Info                              : Advanced Video Codec
    Format profile                           : High@L3.1
    Format settings, CABAC                   : Yes
    Format settings, ReFrames                : 5 frames
    Codec ID                                 : V_MPEG4/ISO/AVC
    Duration                                 : 1h 24mn
    Bit rate                                 : 1 197 Kbps
    Width                                    : 720 pixels
    Height                                   : 390 pixels
    Display aspect ratio                     : 1.85:1
    Frame rate mode                          : Constant
    Frame rate                               : 23.976 fps
    Color space                              : YUV
    Chroma subsampling                       : 4:2:0
    Bit depth                                : 8 bits
    Scan type                                : Progressive
    Bits/(Pixel*Frame)                       : 0.178
    Stream size                              : 722 MiB (66%)
    Writing library                          : x264 core 138 r2358kMod 9e941d1
    Encoding settings                        : cabac=1 / ref=5 / deblock=1:-2:-2 / analyse=0x3:0x133 / me=umh / subme=9 / psy=1 / fade_compensate=0.00 / psy_rd=1.00:0.15 / mixed_ref=1 / me_range=16 / chroma_me=1 / trellis=1 / 8x8dct=1 / cqm=0 / deadzone=21,11 / fast_pskip=1 / chroma_qp_offset=-3 / threads=6 / lookahead_threads=1 / sliced_threads=0 / nr=0 / decimate=1 / interlaced=0 / bluray_compat=0 / constrained_intra=0 / bframes=3 / b_pyramid=2 / b_adapt=2 / b_bias=0 / direct=3 / weightb=1 / open_gop=0 / weightp=2 / keyint=250 / keyint_min=23 / scenecut=40 / intra_refresh=0 / rc_lookahead=50 / rc=crf / mbtree=1 / crf=19.0000 / qcomp=0.60 / qpmin=0 / qpmax=69 / qpstep=4 / ip_ratio=1.40 / aq=1:0.70
    Default                                  : Yes
    Forced                                   : No
    Color range                              : Limited
    Matrix coefficients                      : BT.709
    
    Audio #1
    ID                                       : 2
    Format                                   : AC-3
    Format/Info                              : Audio Coding 3
    Mode extension                           : CM (complete main)
    Format settings, Endianness              : Big
    Codec ID                                 : A_AC3
    Duration                                 : 1h 24mn
    Bit rate mode                            : Constant
    Bit rate                                 : 192 Kbps
    Channel(s)                               : 2 channels
    Channel positions                        : Front: L R
    Sampling rate                            : 48.0 KHz
    Compression mode                         : Lossy
    Stream size                              : 116 MiB (11%)
    Language                                 : German
    Default                                  : Yes
    Forced                                   : No
    
    Audio #2
    ID                                       : 3
    Format                                   : AC-3
    Format/Info                              : Audio Coding 3
    Mode extension                           : CM (complete main)
    Format settings, Endianness              : Big
    Codec ID                                 : A_AC3
    Duration                                 : 1h 24mn
    Bit rate mode                            : Constant
    Bit rate                                 : 384 Kbps
    Channel(s)                               : 6 channels
    Channel positions                        : Front: L C R, Side: L R, LFE
    Sampling rate                            : 48.0 KHz
    Compression mode                         : Lossy
    Stream size                              : 232 MiB (21%)
    Language                                 : English
    Default                                  : No
    Forced                                   : No
    
    Menu
    00:00:00.000                             : en:00:00:00.000
    00:06:42.068                             : en:00:06:42.068
    00:14:09.140                             : en:00:14:09.140
    00:22:14.333                             : en:00:22:14.333
    00:26:25.083                             : en:00:26:25.083
    00:31:22.839                             : en:00:31:22.839
    00:46:28.661                             : en:00:46:28.661
    00:56:22.838                             : en:00:56:22.838
    01:05:01.856                             : en:01:05:01.856
    01:07:11.444                             : en:01:07:11.444
    01:13:49.258                             : en:01:13:49.258
    01:20:59.855                             : en:01:20:59.855





    Genre: Comedy
    Laufzeit: 81 Min.
    Sprache/n: ,
    Video Stream: BD-RIP
    Audio Stream: Dolby Digital 5.1
    Video Codec: MPEG-4 H.264 / AVC





    Sample Download

    Hoster: Uploaded.net, Share-online.biz
    Größe: 1108.71 MB
    Parts: 11 Dateien

    500 MB Parts



    Download



    Download



Berechtigungen

  • Neue Themen erstellen: Nein
  • Themen beantworten: Nein
  • Anhänge hochladen: Nein
  • Beiträge bearbeiten: Nein
  •